Skip to main content

Sparkplug Live at Dive Bar on 2011-07-29


Topics melvin sparks


01 - The Fireeater
02 - Alligator Boogaloo
03 - Miss Riverside
04 - Hot Dog *

05 - Aw Shucks!
06 - Sparkplug
07 - Texas Twister
08 - Breezin'
09 - The Governor
10 - Everything I Play Gon B Funky
11 - Thank You

* w/ special guest Rusty Scott on organ


Collection Sparkplug
Band/Artist Sparkplug
Venue Dive Bar
Location Worcester, MA

Source Schoeps MK4>KC5>CMC6>Sonosax SX-M2>Apogee Mini-me(aes out,24bit/96khz)>COAX>Edirol R-44
Lineage SDHC Card>USB>Macbook Pro>Wave Editor(tracking,fades,resample(izotope)/dither(mbit+)to 16 bit/44.1k)>XAct(FLAC 8,ffp,fix sbe)
Taped by Andy Murray
Transferred by Andy Murray

Notes

Sparkplug
2011-07-29
Dive Bar
Worcester, MA

Recorded and transferred by Andy Murray

Mics were 5' from stage DFC NOS

Schoeps MK4>KC5>CMC6>Sonosax SX-M2>Apogee Mini-me(aes out24bit/96khz)>COAX>Edirol R-44

SDHC Card>USB>Macbook Pro>Wave Editor(tracking,fades,resample(izotope)/dither(mbit+) to 16bit/44.1 khz)>XACT(FLAC 8,ffp,fix sbe)

Bill Carbone - Drums
David Davis - Sax,vocals
Jamemurrell Stanley - Percussion
Beau Sasser - Organ
Johnny Trama - Guitar

Michael Gleason sat in on guitar for part of the second set.

2 Discs
2 Sets

length expanded size cdr WAVE problems fmt ratio filename
11:30.58 121852460 B --- -- ----- sparkplug2011-07-29_mk4_1644_d1t01.wav
14:19.58 151664060 B --- -- ----- sparkplug2011-07-29_mk4_1644_d1t02.wav
15:02.21 159162236 B --- -- ----- sparkplug2011-07-29_mk4_1644_d1t03.wav
12:08.50 128536844 B --- -- ----- sparkplug2011-07-29_mk4_1644_d1t04.wav
16:34.19 175386332 B --- -- ----- sparkplug2011-07-29_mk4_1644_d2t01.wav
8:07.47 86017388 B --- -- ----- sparkplug2011-07-29_mk4_1644_d2t02.wav
13:16.55 140543804 B --- -- ----- sparkplug2011-07-29_mk4_1644_d2t03.wav
12:57.42 137161628 B --- -- ----- sparkplug2011-07-29_mk4_1644_d2t04.wav
17:00.50 180045644 B --- -- ----- sparkplug2011-07-29_mk4_1644_d2t05.wav
16:45.20 177329084 B --- -- ----- sparkplug2011-07-29_mk4_1644_d2t06.wav
12:45.57 135080108 B --- -- ----- sparkplug2011-07-29_mk4_1644_d2t07.wav
150:29.27 1592779588 B 1.0000 (11 files)

Reviews

There are no reviews yet. Be the first one to write a review.
PEOPLE ALSO FOUND
Sparkplug
by Sparkplug
79
0
0
Source: Schoeps Mk41>KC5>CMC6>Sonosax SX-R4(24bit/96khz) & Soundboard
Sparkplug
by Sparkplug
74
0
0
Source: Schoeps MK4>KC5>CMC6>Sonosax SX-M2>Apogee Mini-me(aes out,24bit/96khz)>COAX>Edirol R-44
Sparkplug
by Sparkplug
252
0
1
( 1 reviews )
Source: Schoeps Mk41>KC5>CMC6>Sonosax SX-R4(24bit/96khz) & Soundboard
Sparkplug
by Sparkplug
139
1
0
Source: Schoeps MK4>KC5>CMC6>Sonosax SX-M2>Apogee Mini-me(aes out,24bit/96khz)>COAX>Edirol R-44
Source: Schoeps MK41>KC5>CMC6>Sonosax SX-M2>Apogee Mini-me(aes out,24bit/96khz)>COAX>Edirol R-44 & Soundboard>R-44
( 1 reviews )
Source: Schoeps Mk41>KC5>CMC6>Sonosax SX-R4(24bit/96khz) & Soundboard
Source: Schoeps MK41>KC5>CMC6>Sonosax SX-M2>Apogee Mini-me(aes out,24bit/96khz)>COAX>Edirol R-44 & Soundboard>R-44
Source: Schoeps MK41>KC5>CMC6>Sonosax SX-M2>Apogee Mini-me(aes out,24bit/96khz)>COAX>Edirol R-44 & Soundboard>R-44
Source: Schoeps MK41>KC5>CMC6>Sonosax SX-M2>Apogee Mini-me(aes out,24bit/96khz)>COAX>Edirol R-44
Source: Schoeps MK4>KC5>CMC6>Sonosax SX-M2>Apogee Mini-me(aes out,24bit/96khz)>COAX>Edirol R-44